#TITLE:Checkmate;
#SUBTITLE:Initiate;
#ARTIST:Jay Chou;
#TITLETRANSLIT:;
#SUBTITLETRANSLIT:;
#ARTISTTRANSLIT:;
#CREDIT:;
#BANNER:jj-bn.png;
#BACKGROUND:;
#LYRICSPATH:;
#CDTITLE:cdtitle.png;
#MUSIC:jiangjun.MP3;
#OFFSET:0.000;
#SAMPLESTART:100.000;
#SAMPLELENGTH:12.000;
#SELECTABLE:YES;
#BPMS:0.000=86.000;
#STOPS:;
#BGCHANGES:;
// cache tags:
#FIRSTBEAT:0.000;
#LASTBEAT:171.875;
#SONGFILENAME:Songs/Initiate/checkmate/jiangjun.sm;
#HASMUSIC:1;
#HASBANNER:1;
#MUSICLENGTH:127.694;
// end cache tags

//---------------dance-single - ----------------
#NOTES:
     dance-single:
     :
     Hard:
     7:
     0.771,0.757,1.000,0.133,1.000,503.000,169.000,17.000,0.000,18.000:
0002
0000
0003
0000
0000
0000
0010
0000
0000
0000
1000
0000
0000
0010
0000
0000
0021
0000
0100
0000
0000
0000
1000
0000
0000
0000
1000
0000
0000
0100
0000
0000
,
0001
0000
0100
0000
0000
0000
1000
0000
0000
0000
1000
0000
0000
0100
0000
0000
0001
0000
0100
0000
0000
0000
1000
0000
0000
0000
0100
0000
0000
1000
0000
0000
,
0001
0000
0100
0000
0000
0000
0001
0000
0000
0000
1000
0000
0000
0100
0000
0000
0001
0000
0001
0000
0000
0000
0001
0000
0000
0000
1000
0000
0000
0001
0000
0000
,
1000
0000
0100
0000
0000
0000
1000
0000
0000
0000
0001
0000
0000
0100
0000
0000
1030
0000
0110
0000
0000
0000
0110
0000
0001
0000
0110
0000
0001
0000
1000
0000
,
0001
0110
0000
0110
1000
0110
0001
0010
0100
1001
0000
1001
0100
1001
0010
0001
,
0100
1010
0000
1010
0100
0011
1000
0100
0010
0101
0000
0101
1000
0101
0010
0001
,
0100
0011
0000
0011
1000
0101
0100
0001
0010
1100
0000
1100
0001
1010
0100
1000
,
0100
0000
0001
0000
0000
0010
0000
0000
0100
0000
1000
0000
0000
0100
0000
0000
0001
0000
0110
0000
0000
0000
0110
0000
0100
0000
0010
0000
0000
0000
0001
0000
,
0001
0110
0000
0110
0000
1000
0000
0010
0001
1010
0000
1010
0000
0100
0000
0010
,
0100
1001
0000
1001
0000
0001
0000
0010
0100
0011
0000
0011
0000
0100
0000
1000
,
0100
0101
0000
0101
0000
0010
0000
0100
0010
0101
0000
0101
0000
0100
0000
1000
,
0100
0011
0000
0011
0000
0100
0000
1000
0001
1010
0000
1010
0000
0001
0000
0010
,
0100
1010
0000
1010
0000
0100
0000
0001
0001
0101
0000
0101
0000
0100
0000
0100
,
0100
1100
0000
1100
0000
0100
0000
0100
0100
0101
0000
0101
0020
0001
0130
1000
,
0000
0101
0100
0101
0100
0101
0100
0100
0100
1010
0001
1010
0010
1100
1000
0100
,
0000
0011
1000
0101
0010
0101
0010
0100
1000
1010
0001
1001
0001
1001
0001
0001
,
0001
1001
0001
1001
0001
1001
0001
0001
0001
0110
1000
1010
1000
1010
1000
1000
,
1000
1010
1000
1010
1000
1010
0001
1000
1000
0011
0100
0101
0100
0101
0100
0100
,
0100
0101
0100
0101
0100
0101
0100
0100
0100
1001
0010
0110
0010
0110
0010
0010
,
0010
0000
0110
0000
0010
0000
0110
0000
0010
0000
1100
0000
0001
0000
0010
0000
0000
1000
0000
0000
0000
0100
0000
0000
0000
1010
0000
0000
0000
0001
0000
0100
,
0000
1000
0000
0000
0000
1000
0000
0000
0000
1100
0000
0000
0000
0100
0000
0010
0000
0001
0000
0000
0000
0001
0000
0000
0000
0101
0000
0000
0000
0010
0000
0100
,
0000
1000
0000
0000
0000
1000
0000
0000
0000
1010
0000
0000
0000
1000
0000
0100
0000
0010
0000
0000
0000
0010
0000
0000
0000
0101
0000
0000
0000
1000
0000
0100
,
0000
1000
0000
0000
0000
0001
0000
0000
0000
0101
0000
0000
0000
1000
0000
0100
0000
0010
0000
0000
0000
0010
0000
0000
0000
0101
0000
0000
0000
0010
0000
0100
,
0000
1000
0000
0000
0000
1000
0000
0010
0000
0101
0000
0000
0000
0010
0000
0000
0000
1000
0000
0000
0000
0001
0000
0000
0000
1100
0000
0000
0000
0010
0000
0100
,
0000
0010
0000
0000
0000
0100
0000
0000
0000
1001
0000
0000
0000
0100
0000
0100
0000
0001
0000
0000
0000
0001
0000
0000
0000
0101
0000
0000
0000
1000
0000
1000
,
0000
0100
0000
0000
0000
0100
0000
0000
0000
0101
0000
0000
0000
0010
0000
0010
0000
0010
0000
0000
0000
0010
0000
0000
0000
1010
0000
0000
0000
0100
0000
0100
,
0000
0100
0000
0000
0000
0100
0000
0000
0000
0101
0000
0000
0000
0001
0000
0001
0000
0001
0000
0000
0000
0001
0000
0000
0000
1001
0000
0000
0000
1000
0000
1000
,
0000
1000
0000
0100
0000
0100
0000
0100
0000
0101
0000
0000
0000
0100
0000
0000
0000
0001
0000
0000
0000
1000
0000
0000
0000
1001
0000
0000
0000
0001
0000
0100
,
0000
0010
0000
0000
0000
0001
0000
0000
0000
0110
0000
1000
0000
0100
0000
0001
0000
0100
0000
0000
0000
1000
0000
0000
0000
0110
0000
0000
0000
0010
0000
0100
,
0000
0001
0000
0000
0000
0100
0000
0000
0000
0110
0000
0000
0000
0100
0000
0010
0000
1000
0000
0000
0000
0001
0000
0000
0000
1010
0000
0000
0000
1000
0000
0001
,
0000
0100
0000
0000
0000
1000
0000
0000
0000
1010
0000
0100
0000
0010
0000
1000
0000
0001
0000
0000
0000
0100
0000
0000
0000
0110
0000
0000
0000
0010
0000
0100
,
0000
1000
0000
0000
0000
0001
0000
0010
0000
0101
0000
0000
0000
0110
0000
0110
0000
0110
0000
0000
0000
0110
0000
1000
0000
0110
0000
0010
0000
1000
0000
0100
,
0000
1001
0000
0000
0000
1010
0000
0000
0000
1010
0000
0100
0000
0001
0000
0010
0000
0101
0000
0000
0000
0101
0000
0000
0000
0110
0000
1000
0000
0100
0000
0001
,
0000
1010
0000
0000
0000
1100
0000
0000
0000
1100
0000
0001
0000
0010
0000
0001
0000
0101
0000
0000
0000
0101
0000
0000
0000
1001
0000
0010
0000
0100
0000
0001
,
0000
1001
0000
0000
0000
0110
0000
0000
0000
1001
0000
1000
0000
0010
0000
0100
0000
1001
0000
0000
0000
0110
0000
0000
0000
1001
0000
0100
0000
0010
0000
0010
,
0000
0100
0000
1000
0000
0100
0000
0001
0000
0001
0000
0010
0000
0100
0000
0001
0000
1001
0000
0000
0000
1010
0000
0000
0000
1010
0000
0000
0000
0001
0000
1000
,
0000
0020
0000
0000
0000
1000
0000
0000
0000
1032
0000
0010
0000
0100
0000
1000
0000
0113
0000
0000
0000
0110
0000
0000
0000
1001
0000
0100
0000
0010
0000
1000
,
0000
2001
0000
0000
0000
0110
0000
0000
0000
3102
0000
0010
0000
0100
0000
1000
0000
0113
0000
0000
0000
1010
0000
0000
0000
1001
0000
0010
0000
0100
0000
1000
,
0000
0102
0000
0000
0000
1000
0000
0000
0000
0123
0000
0001
0000
0100
0000
1000
0000
1031
0000
0000
0000
0011
0000
0000
0000
0101
0000
0000
0000
0100
0000
1000
,
0000
2001
0000
0000
0000
0010
0000
0100
0000
3012
0000
0000
0000
1010
0000
0000
0000
0113
0000
0000
0000
1001
0000
0000
0000
0110
0000
1000
0000
0001
0000
0100
,
0000
1200
0000
0000
0000
1001
0000
0000
0000
0320
0000
0001
0000
1000
0000
0100
0000
1031
0000
0000
0000
1010
0000
0000
0000
0101
0000
1000
0000
0010
0000
0100
,
0000
1020
0000
0000
0000
1001
0000
0000
0000
1230
0000
0001
0000
1000
0000
0010
0000
1301
0000
0000
0000
1010
0000
0000
0000
0101
0000
0000
0000
0001
0000
0100
,
0000
0120
0000
0000
0000
0101
0000
0000
0000
0132
0000
0000
0000
0100
0000
0100
0000
0113
0000
0000
0000
0101
0000
0000
0000
0101
0000
0100
0000
1000
0000
0100
;
